Bienvenido al mejor foro de Artes Marciales y Culturismo. Pincha en este mensaje para unirte a la comunidad.

ForoArtesMarciales.com Facebook de ForoArtesMarciales.com Twitter de ForoArtesMarciales.com Agrega ForoArtesMarciales.com a Favoritos


Retroceder   ForoArtesMarciales.com > General > Descargas > Deportes (Descargas)
Recuperar contraseña Unirse al Foro

Elimina la publicidad 
Respuesta
LinkBacks Herramientas
  #1  
Antiguo 11-04-2019, 16:49
Avatar de parrix
Junior Member
 
Fecha de Ingreso: Mar 2019
Ubicación: España
Mensajes: 6
Gracias: 0
Agradecido 0 Veces en 0 Posts
WrestleMania 35 (2019)[HDTV 1080p][Español][1/1][10GB][VS]










WrestleMania 35

Promoción: WWE
Marca: Raw, SmackDown Live, 205 Live
Patrocinador: Snickers
Fecha: 7 de abril de 2019
Asistentes: 82.2651?2?
Recinto: MetLife Stadium
Lugar: East Rutherford, Nueva Jersey
Tema: Work de Chris Classic, Love Runs Out de One Republic





Calidad: HDTV 1080p
Formato: MKV
Duración: 5 horas y 25 min.
Resolución: 1920x1080p
Video: AVC x264
Audio: Español AAC 2.0 48000 Hz
Comentaritas: Carlos Cabrera (Colombia), Marcelo Rodríguez (Venezuela)
Tamaño: 10 GB
Subtítulos: No
By: Parrix





Descomprimir con winrar, 7zip o programa similar



MediaInfo:

Código:
General
Complete name               : WWE.WrestleMania.35.1O8O.mkv (by parrix)
Format                      : MPEG-4
Format profile              : Base Media / Version 2
Codec ID                    : mp42 (mp42)
File size                   : 10.5 GiB
Duration                    : 5 h 24 min
Overall bit rate            : 4 638 kb/s
Codirector                  : codirector
Production studio           : studio
ContentType                 : Unknown Type
Encoded date                : UTC 2019-04-08 06:49:46
Tagged date                 : UTC 2019-04-08 06:49:46
FileExtension_Invalid       : mov mp4 m4v m4a m4b m4p 3ga 3gpa 3gpp 3gp 3gpp2 3g2 k3g jpm jpx mqv ismv isma ismt f4a f4b f4v

Video
ID                          : 1
Format                      : AVC
Format/Info                 : Advanced Video Codec
Format profile              : Main@L4.1
Format settings             : CABAC / 2 Ref Frames
Format settings, CABAC      : Yes
Format settings, RefFrames  : 2 frames
Muxing mode                 : Container profile=Baseline@3.0
Codec ID                    : avc1
Codec ID/Info               : Advanced Video Coding
Duration                    : 5 h 24 min
Source duration             : 5 h 24 min
Bit rate                    : 4 502 kb/s
Width                       : 1 920 pixels
Height                      : 1 080 pixels
Display aspect ratio        : 16:9
Frame rate mode             : Constant
Frame rate                  : 29.970 (30000/1001) FPS
Color space                 : YUV
Chroma subsampling          : 4:2:0
Bit depth                   : 8 bits
Scan type                   : Progressive
Bits/(Pixel*Frame)          : 0.072
Stream size                 : 10.2 GiB (97%)
Source stream size          : 10.2 GiB (97%)
Language                    : Spanish

Audio
ID                          : 2
Format                      : AAC
Format/Info                 : Advanced Audio Codec
Format profile              : LC
Codec ID                    : mp4a-40-2
Duration                    : 5 h 24 min
Bit rate mode               : Constant
Bit rate                    : 128 kb/s
Channel(s)                  : 2 channels
Channel positions           : Front: L R
Sampling rate               : 48.0 kHz
Frame rate                  : 46.875 FPS (1024 SPF)
Compression mode            : Lossy
Stream size                 : 297 MiB (3%)
Title                       : Stereo
Language                    : Spanish
Default                     : Yes
Alternate group             : 1




WrestleMania 35 es la trigésima quinta edición de WrestleMania, evento pague-por-ver de lucha libre profesional producido por la WWE. Tuvo lugar el 7 de abril de 2019, en el MetLife Stadium en la ciudad de Nueva Jersey, Nueva York.









Se recomienda descargar con JDownloader v2, Mipony o programa similar



Descarga todo de un servidor FREE + 1 parte NO FREE











[HIDE]
Código:
https://safelinking.net/myyjz63
[/HIDE]


Visita mi perfil para ver todos mis aportes




Responder Citando

Los últimos 5 hilos de parrix
Hilos Foro Última respuesta Respuestas Visitas Últimos mensajes
Boxeo WBC Campeonato Internacional Superligero... Deportes (Descargas) parrix 0 532 17-04-2019 12:39
UFC 236 Main Card - Holloway VS. Poirier 2... Artes Marciales (Descargas) parrix 0 548 17-04-2019 11:31
UFC FN - Barboza vs Gaethje - Main Card... Artes Marciales (Descargas) parrix 0 485 12-04-2019 08:54
Boxeo WBC Campeonato Semi Pesado CMB/Peso Welter... Deportes (Descargas) parrix 0 401 11-04-2019 22:46
WrestleMania 35 (2019)[HDTV... Deportes (Descargas) parrix 0 384 11-04-2019 16:49

Registrate y elimina la publicidad 
Respuesta

Etiquetas
1080pespañol1 or 110gbvs, 2019hdtv, wrestlemania

Últimos hilos publicados en el foro: Deportes (Descargas)

Herramientas
Desplegado

Normas de Publicación
No puedes crear nuevos temas
No puedes responder temas
No puedes subir archivos adjuntos
No puedes editar tus mensajes

Los Códigos BB están Activado
Las Caritas están Activado
[IMG] está Activado
El Código HTML está Desactivado
Trackbacks are Activado
Pingbacks are Activado
Refbacks are Activado


» Panel de Navegación
 > Portal
 > Foro
» Temas Nuevos
¿que artes marciales practicas o has practicado?? ( 1 2 3 4 5... Última página)
21-06-2007 22:10
Último mensaje por statickx
Ayer 19:27
293 Respuestas, 72,236 Visitas
Que hacer en roma
30-12-2020 23:39
por Ilmelth
Último mensaje por statickx
Ayer 19:22
2 Respuestas, 133 Visitas
Tienda Online Artes Marciales - DESCUENTOS para foreros
20-11-2019 10:16
Último mensaje por statickx
Ayer 19:17
3 Respuestas, 278 Visitas
canal de youtube
12-07-2020 19:53
Último mensaje por statickx
Ayer 19:16
1 Respuestas, 349 Visitas
Mejora cardio consejos
20-08-2019 09:38
por _ElMag0_
Último mensaje por statickx
Ayer 19:13
3 Respuestas, 469 Visitas
Hola nuevo por acá
Ayer 19:08
por statickx
Último mensaje por statickx
Ayer 19:08
0 Respuestas, 13 Visitas
» ¡Síguenos!

Sigue las últimas descargas y artículos en Twitter o Facebook
Powered by vBadvanced CMPS v3.2.2

La franja horaria es GMT +2. Ahora son las 06:26.


Desarrollado por: vBulletin®
Derechos de Autor ©2000 - 2021, Jelsoft Enterprises Ltd.
El webmaster y los administradores/moderadores de la web, no se responsabilizan de las opiniones o comentarios de los miembros.
Tags: Foro de Musicos  Tienda de Guitarras Foro de Culturismo Foro Adelgazar wwwTodoesGratis.es www.InfoCulturismo.com
Para más información puede consultar nuestro Aviso Legal- LSSI , Política de Privacidad y Política de Protección de Datos.
ForoArtesMarciales.com es un Portal/Foro de Artes Marciales afincado en España.
El foro ha sido creado por un Español para uso y disfrute de toda la comunidad de habla hispana.
© ForoArtesMarciales.com Made in Spain - Made for you
Page generated in 0.13912 seconds with 20 queries

SEO by vBSEO 3.3.0